Confidential Assignment (2017) 720p BluRay Dual Audio [Hindi – Korean] Esub

Im Cheol-ryung is a North Koraean officer chasing Cha Ki-seong, a dangerous criminal, who flees to South Korea. South Korean detective Kang Jin-tae helps Cheol-ryung hunt him down
Movie Info :

Initial release: 18 January 2017
Format : Matroska
File size : 873 MB
Duration : 2 h 04 min
IMDB :6.5/10 

Video :

ID : 1
Format : AVC
Format/Info : Advanced Video Codec
Format profile : [email protected]
Format settings, CABAC : Yes
Format settings, RefFrames : 16 frames
Codec ID : V_MPEG4/ISO/AVC
Duration : 2 h 4 min
Bit rate : 800 kb/s
Width : 1 280 pixels
Height : 536 pixels
Display aspect ratio : 2.40:1
Frame rate mode : Variable
Frame rate : 23.928 FPS
Original frame rate : 24.000 FPS
Color space : YUV
Chroma subsampling : 4:2:0
Bit depth : 8 bits
Scan type : Progressive
Bits/(Pixel*Frame) : 0.049
Stream size : 709 MiB (81%)
Title : HdFree4U.Com

Audio 1 :

ID : 2
Format : MPEG Audio
Format version : Version 1
Format profile : Layer 3
Mode : Joint stereo
Mode extension : MS Stereo
Codec ID : A_MPEG/L3
Codec ID/Hint : MP3
Duration : 2 h 4 min
Bit rate mode : Constant
Bit rate : 96.0 kb/s
Channel(s) : 2 channels
Sampling rate : 44.1 kHz
Frame rate : 38.281 FPS (1152 SPF)
Compression mode : Lossy
Stream size : 85.3 MiB (10%)
Title : HdFree4U.Com
Writing library : LAME3.98.2
Language : Hindi
Default : Yes
Forced : No

Audio 2 :

ID : 3
Format : AAC
Format/Info : Advanced Audio Codec
Format profile : LC
Codec ID : A_AAC
Duration : 2 h 4 min
Bit rate : 86.4 kb/s
Channel(s) : 6 channels
Channel positions : Front: L C R, Side: L R, LFE
Sampling rate : 44.1 kHz
Frame rate : 43.066 FPS (1024 SPF)
Compression mode : Lossy
Stream size : 76.7 MiB (9%)
Title : HdFree4U.Com
Language : Korean
Default : No
Forced : No

Text :

ID : 4
Format : UTF-8
Codec ID : S_TEXT/UTF8
Codec ID/Info : UTF-8 Plain Text
Duration : 1 h 6 min
Bit rate : 54 b/s
Count of elements : 1006
Stream size : 26.7 KiB (0%)
Title : HdFree4U.Com
Language : English
Default : Yes
Forced : No

vlcsnap-2017-12-04-08h58m30s0863d123b9efd9ef5d3.jpg

-Download Links-

IndiShare

Leave a Reply

Your email address will not be published. Required fields are marked *