Jackson Durai (2016) 720p UNCUT HDRip [Dual Audio] [Hindi DD 2.0 – Tamil DD 5.1] x264

A police inspector falls in love with a village leader’s daughter. To win the leader’s approval, the policeman is asked to stay several days in a haunted house.
Movie Info :

Initial release: 1 July 2016
Format : Matroska
File size : 1.30 GB
Duration : 2 h 08 min
IMDB : 4.7/10 

Video
ID : 1
Format : AVC
Format/Info : Advanced Video Codec
Format profile : [email protected]
Format settings, CABAC : Yes
Format settings, RefFrames : 3 frames
Codec ID : V_MPEG4/ISO/AVC
Duration : 2 h 8 min
Bit rate : 1 100 kb/s
Width : 1 280 pixels
Height : 544 pixels
Display aspect ratio : 2.35:1
Frame rate mode : Constant
Frame rate : 29.970 (29970/1000) FPS
Original frame rate : 29.970 (30000/1001) FPS
Color space : YUV
Chroma subsampling : 4:2:0
Bit depth : 8 bits
Scan type : Progressive
Bits/(Pixel*Frame) : 0.053
Stream size : 1 008 MiB (76%)
Title : HdFree4U.Com
Writing library : x264 core 79

Audio 1 :

ID : 2
Format : MPEG Audio
Format version : Version 1
Format profile : Layer 3
Mode : Joint stereo
Mode extension : MS Stereo
Codec ID : A_MPEG/L3
Codec ID/Hint : MP3
Duration : 2 h 8 min
Bit rate mode : Constant
Bit rate : 192 kb/s
Channel(s) : 2 channels
Sampling rate : 44.1 kHz
Frame rate : 38.281 FPS (1152 SPF)
Compression mode : Lossy
Stream size : 176 MiB (13%)
Title : HdFree4U.Com
Writing library : LAME3.98.2
Language : Hindi
Default : Yes
Forced : No

Audio 2 :

ID : 3
Format : AC-3
Format/Info : Audio Coding 3
Format settings, Endianness : Big
Codec ID : A_AC3
Duration : 2 h 8 min
Bit rate mode : Constant
Bit rate : 160 kb/s
Channel(s) : 6 channels
Channel positions : Front: L C R, Side: L R, LFE
Sampling rate : 44.1 kHz
Frame rate : 28.711 FPS (1536 SPF)
Bit depth : 16 bits
Compression mode : Lossy
Stream size : 146 MiB (11%)
Title : HdFree4U.Com
Language : Tamil
Service kind : Complete Main
Default : No
Forced : No

Text :

ID : 4
Format : UTF-8
Codec ID : S_TEXT/UTF8
Codec ID/Info : UTF-8 Plain Text
Duration : 1 min 19 s
Bit rate : 6 b/s
Count of elements : 3
Stream size : 65.0 Bytes (0%)
Title : HdFree4U.Com
Language : English
Default : Yes
Forced : No

jdf6b11085ddd42133.jpg

-Download Links-

IndiShare

Leave a Reply

Your email address will not be published. Required fields are marked *