Aayirathil Oruvan (2010) 720p UNCUT HDRip x264 [Dual Audio] [Hindi DD 2.0 – Tamil DD 5.1] ESubs

Chandramouli, a famous archeologist, goes missing while on a research expedition. Anitha, a government officer, and Lavanya, Chandramouli’s daughter, embark on an
adventurous journey to find him.

Movie Info :

Initial release: 14 January 2010
Format : Matroska
File size : 1.90 GB
Duration : 3 h 04 min
IMDB : 7.6/10 

Video
ID : 1
Format : AVC
Format/Info : Advanced Video Codec
Format profile : [email protected]
Format settings, CABAC : Yes
Format settings, RefFrames : 4 frames
Codec ID : V_MPEG4/ISO/AVC
Duration : 3 h 1 min
Bit rate : 1 150 kb/s
Width : 1 280 pixels
Height : 532 pixels
Display aspect ratio : 2.40:1
Frame rate mode : Constant
Frame rate : 23.976 (24000/1001) FPS
Color space : YUV
Chroma subsampling : 4:2:0
Bit depth : 8 bits
Scan type : Progressive
Bits/(Pixel*Frame) : 0.070
Stream size : 1.46 GiB (77%)
Title : HdFree4U.Com

Audio 1 :

ID : 2
Format : MPEG Audio
Format version : Version 1
Format profile : Layer 3
Mode : Joint stereo
Mode extension : MS Stereo
Codec ID : A_MPEG/L3
Codec ID/Hint : MP3
Duration : 3 h 1 min
Bit rate mode : Constant
Bit rate : 192 kb/s
Channel(s) : 2 channels
Sampling rate : 44.1 kHz
Frame rate : 38.281 FPS (1152 SPF)
Compression mode : Lossy
Stream size : 249 MiB (13%)
Title : HdFree4U.Com
Writing library : LAME3.98.2
Language : Hindi
Default : Yes
Forced : No

Audio 2 :

ID : 3
Format : AC-3
Format/Info : Audio Coding 3
Codec ID : A_AC3
Duration : 2 h 59 min
Bit rate : 160 kb/s
Channel(s) : 6 channels
Sampling rate : 44.1 kHz
Frame rate : 28.711 FPS (1536 SPF)
Compression mode : Lossy
Stream size : 205 MiB (11%)
Title : HdFree4U.Com
Language : Tamil
Default : No
Forced : No

Text :

ID : 4
Format : UTF-8
Codec ID : S_TEXT/UTF8
Codec ID/Info : UTF-8 Plain Text
Duration : 2 h 58 min
Bit rate : 21 b/s
Count of elements : 890
Stream size : 28.4 KiB (0%)
Title : HdFree4U.Com
Language : English
Default : Yes
Forced : No

vlcsnap-2017-12-04-20h44m23s158dfb50b1736d920d6.jpg

-Download Links-

IndiShare

Leave a Reply

Your email address will not be published. Required fields are marked *