The Foreigner (2017) 720p HC HDRip Dual Audio [Hindi (Cleaned) – English] x264

Quan is a humble London businessman whose long-buried past erupts in a revenge-fueled vendetta when the only person left for him to love — his teenage daughter — dies in a senseless act of politically motivated terrorism. His relentless search to find the terrorists leads to a cat-and-mouse conflict with a British government official whose own past may hold the clues to the identities of the elusive killers.

Movie Info :

Initial release: 30 September 2017
Format : Matroska
File size : 1007 MB
Duration : 1 h 52 min
IMDB : 7.2/10

Video
ID : 1
Format : AVC
Format/Info : Advanced Video Codec
Format profile : [email protected]
Format settings, CABAC : Yes
Format settings, RefFrames : 8 frames
Codec ID : V_MPEG4/ISO/AVC
Duration : 1 h 52 min
Bit rate : 1 060 kb/s
Width : 1 280 pixels
Height : 528 pixels
Display aspect ratio : 2.40:1
Frame rate mode : Constant
Frame rate : 24.000 FPS
Color space : YUV
Chroma subsampling : 4:2:0
Bit depth : 8 bits
Scan type : Progressive
Bits/(Pixel*Frame) : 0.065
Stream size : 851 MiB (85%)
Title : HdFree4U.Com

Audio 1:

ID : 2
Format : MPEG Audio
Format version : Version 1
Format profile : Layer 3
Mode : Joint stereo
Mode extension : MS Stereo
Codec ID : A_MPEG/L3
Codec ID/Hint : MP3
Duration : 1 h 52 min
Bit rate mode : Constant
Bit rate : 128 kb/s
Channel(s) : 2 channels
Sampling rate : 44.1 kHz
Frame rate : 38.281 FPS (1152 SPF)
Compression mode : Lossy
Stream size : 103 MiB (10%)
Title : HdFree4U.Com
Writing library : LAME3.98.2
Language : Hindi
Default : Yes
Forced : No

Audio 2 :

ID : 3
Format : AAC
Format/Info : Advanced Audio Codec
Format profile : HE-AAC / LC
Codec ID : A_AAC
Duration : 1 h 52 min
Bit rate : 64.0 kb/s
Channel(s) : 2 channels
Channel positions : Front: L R
Sampling rate : 48.0 kHz / 24.0 kHz
Frame rate : 23.438 FPS (1024 SPF)
Compression mode : Lossy
Delay relative to video : 31 ms
Stream size : 51.4 MiB (5%)
Title : HdFree4U.Com
Language : English
Default : No
Forced : No

Text :

ID : 4
Format : UTF-8
Codec ID : S_TEXT/UTF8
Codec ID/Info : UTF-8 Plain Text
Duration : 1 min 19 s
Bit rate : 6 b/s
Count of elements : 3
Stream size : 65.0 Bytes (0%)
Title : HdFree4U.Com
Language : English
Default : Yes
Forced : No

vlcsnap-2017-12-05-23h11m01s37530e9a1bc12265e59.jpg

-Download Links-

IndiShare

BdUpload

9xupload

clicknupload

File size – 1007MB

6 Comments
  1. Any movie i can’t able to download from Indishare link…… when I’m opening that link seconds are coming then it is stop at 4 second… after that i can’t able to click on that…

Leave a Reply

Your email address will not be published. Required fields are marked *