Krrish 3 (2013) 720p BluRay Hindi AC3 5.1 x264

Krrish and his father must defeat human-animal mutants created by an evil genius, Kaal, who is hell-bent on destroying the world. His vile army is led by a chameleon mutant, Kaya.

Movie Info :

Release date: 1 November 2013
Format : Matroska
File size :  1.2 GB
Duration : 2h 33mn
IMDB : 5.3/10

Video :
ID : 1
Format : AVC
Format/Info : Advanced Video Codec
Format profile : [email protected]
Format settings, CABAC : Yes
Format settings, ReFrames : 5 frames
Codec ID : VMPEG4/ISO/AVC
Duration : 2h 33mn
Bit rate : 900 Kbps
Width : 1 280 pixels
Height : 544 pixels
Display aspect ratio : 2.35:1
Frame rate mode : Constant
Frame rate : 24.000 fps
Color space : YUV
Chroma subsampling : 4:2:0
Bit depth : 8 bits
Scan type : Progressive
Bits/(Pixel*Frame) : 0.054
Stream size : 980 MiB (81%)
Title : HdFree4U.Com
Language : Hindi
Default : Yes
Forced : No

Audio :
ID : 2
Format : AC3
Format/Info : Audio Coding 3
Mode extension : CM (complete main)
Format settings, Endianness : Big
Codec ID : AAC3
Duration : 2h 33mn
Bit rate mode : Constant
Bit rate : 192 Kbps
Channel(s) : 6 channels
Channel positions : Front: L C R, Side: L R, LFE
Sampling rate : 48.0 KHz
Bit depth : 16 bits
Compression mode : Lossy
Stream size : 210 MiB (17%)
Title : HdFree4U.Com
Language : Hindi
Default : Yes
Forced : No

Text :

Format : UTF-8
Title : HdFree4U.in
Language : English

vlcsnap-1895-12-07-13h53m39s875f94d73cef2593704.jpg

-DOWNLOAD LINK-

IndiShare

BDupload

file size : 1.2 GB

 

Leave a Reply

Your email address will not be published. Required fields are marked *