My Lucky Elephant (2013) 720p WEBRiP Dual Audio [Hindi DD 2.0 French 2.0] x264

An orphan discovers a friend in Lucky, an elephant. Lucky becomes a celebrity when he learns painting at a school; however, he has to part ways with the boy after it’s time for him to start a family.

Movie Info :

Initial release: 26 February 2013
Format : Matroska
File size : 1.00 GB

Duration : 1 h 27 min

IMDB : 7.4/10 

Video :
ID : 1
Format : AVC
Format/Info : Advanced Video Codec
Format profile : [email protected]
Format settings, CABAC : Yes
Format settings, RefFrames : 3 frames
Codec ID : V_MPEG4/ISO/AVC
Duration : 1 h 27 min
Bit rate : 1 389 kb/s
Width : 1 280 pixels
Height : 720 pixels
Display aspect ratio : 16:9
Frame rate mode : Constant
Frame rate : 25.000 FPS
Color space : YUV
Chroma subsampling : 4:2:0
Bit depth : 8 bits
Scan type : Progressive
Bits/(Pixel*Frame) : 0.060
Stream size : 871 MiB (84%)
Title : HdFree4U.Com
Audio 1 :

ID : 2
Format : MPEG Audio
Format version : Version 1
Format profile : Layer 3
Mode : Joint stereo
Mode extension : MS Stereo
Codec ID : A_MPEG/L3
Codec ID/Hint : MP3
Duration : 1 h 27 min
Bit rate mode : Constant
Bit rate : 192 kb/s
Channel(s) : 2 channels
Sampling rate : 44.1 kHz
Frame rate : 38.281 FPS (1152 SPF)
Compression mode : Lossy
Stream size : 120 MiB (12%)
Title : HdFree4U.Com
Writing library : LAME3.98.2
Language : Hindi
Default : Yes
Forced : No

Audio 2 :

ID : 3
Format : AAC
Format/Info : Advanced Audio Codec
Format profile : LC
Codec ID : A_AAC
Duration : 1 h 27 min
Bit rate : 61.5 kb/s
Channel(s) : 2 channels
Channel positions : Front: L R
Sampling rate : 48.0 kHz
Frame rate : 46.875 FPS (1024 SPF)
Compression mode : Lossy
Stream size : 38.6 MiB (4%)
Title : HdFree4U.Com
Language : French
Default : No
Forced : No

Text :

ID : 4
Format : UTF-8
Codec ID : S_TEXT/UTF8
Codec ID/Info : UTF-8 Plain Text
Duration : 1 min 19 s
Bit rate : 6 b/s
Count of elements : 3
Stream size : 65.0 Bytes (0%)
Title : HdFree4U.Com
Language : English
Default : Yes
Forced : No

vlcsnap-2017-12-05-12h00m22s92323d5e3107a6777a3.jpg

-Download Links-

IndiShare

File size – 1.00 GB

Leave a Reply

Your email address will not be published. Required fields are marked *