Selfless (2015) 720p BluRay x264 [Dual Audio] [Hindi DD 2.0 – English DD 5.1] ESubs

A group of scientists transfer the mind of a terminally ill patient to a healthy man’s body, but the result is not quite what they expected.

Movie Info :

Initial release: 10 July 2015
Format : Matroska
File
size : 1.26 GB

Duration : 1 h 57 min

IMDB : 6.5/10  

Video
ID : 1
Format : AVC
Format/Info : Advanced Video Codec
Format profile : [email protected]
Format settings, CABAC : Yes
Format settings, RefFrames : 5 frames
Codec ID : V_MPEG4/ISO/AVC
Duration : 1 h 56 min
Bit rate : 1 129 kb/s
Width : 1 280 pixels
Height : 544 pixels
Display aspect ratio : 2.35:1
Frame rate mode : Constant
Frame rate : 23.976 (24000/1001) FPS
Color space : YUV
Chroma subsampling : 4:2:0
Bit depth : 8 bits
Scan type : Progressive
Bits/(Pixel*Frame) : 0.068
Stream size : 944 MiB (73%)
Title : HdFree4U.Com

Audio 1 :

ID : 2
Format : MPEG Audio
Format version : Version 1
Format profile : Layer 3
Mode : Joint stereo
Mode extension : MS Stereo
Codec ID : A_MPEG/L3
Codec ID/Hint : MP3
Duration : 1 h 56 min
Bit rate mode : Constant
Bit rate : 224 kb/s
Channel(s) : 2 channels
Sampling rate : 44.1 kHz
Frame rate : 38.281 FPS (1152 SPF)
Compression mode : Lossy
Stream size : 187 MiB (14%)
Title : HdFree4U.Com
Writing library : LAME3.98.2
Language : Hindi
Default : Yes
Forced : No

Audio 2 :

ID : 3
Format : AC-3
Format/Info : Audio Coding 3
Format settings, Endianness : Big
Codec ID : A_AC3
Duration : 1 h 56 min
Bit rate mode : Constant
Bit rate : 192 kb/s
Channel(s) : 6 channels
Channel positions : Front: L C R, Side: L R, LFE
Sampling rate : 48.0 kHz
Frame rate : 31.250 FPS (1536 SPF)
Bit depth : 16 bits
Compression mode : Lossy
Stream size : 161 MiB (12%)
Title : HdFree4U.Com
Language : English
Service kind : Complete Main
Default : No
Forced : No

Text :

ID : 4
Format : UTF-8
Codec ID : S_TEXT/UTF8
Codec ID/Info : UTF-8 Plain Text
Duration : 1 h 49 min
Bit rate : 42 b/s
Count of elements : 1113
Stream size : 33.9 KiB (0%)
Title : HdFree4U.Com
Language : English
Default : Yes
Forced : No

vlcsnap-2017-12-05-12h20m11s4021fa8c43ff8032043.jpg

-Download Links-

IndiShare

BdUpload

Leave a Reply

Your email address will not be published. Required fields are marked *